<?xml version="1.0" standalone="no"?>
<!DOCTYPE svg PUBLIC "-//W3C//DTD SVG 1.1//EN" "http://www.w3.org/Graphics/SVG/1.1/DTD/svg11.dtd">
<svg xmlns="http://www.w3.org/2000/svg">
<metadata>Generated by Fontastic.me</metadata>
<defs>
<font id="category-icons" horiz-adv-x="512">
<font-face font-family="category-icons" units-per-em="512" ascent="480" descent="-32"/>
<missing-glyph horiz-adv-x="512" />

<glyph glyph-name="shirt-1" unicode="&#97;" d="M509 328l-86 86c-22 21-52 34-83 34l-168 0c-31 0-61-12-83-34l-86-86c-4-5-4-11 0-16l64-64c4-4 11-4 15 0l35 36 0-231c0-6 5-10 11-10l256 0c6 0 11 4 11 10l0 231 35-36c4-4 11-4 15 0l64 64c2 2 3 5 3 8 0 3-1 6-3 8z m-201 99c-5-25-26-43-52-43-26 0-47 18-52 43z m129-156l-45 46c-4 3-8 4-12 2-4-1-7-5-7-10l0-245-234 0 0 245c0 5-3 9-7 10-4 2-9 1-12-2l-45-46-49 49 78 79c18 18 43 28 68 28l10 0c5-36 36-64 74-64 38 0 69 28 74 64l10 0c25 0 50-11 68-28l78-79z"/>
<glyph glyph-name="shirt-2" unicode="&#98;" d="M509 317l-117 117c-2 2-5 3-8 3l-28 0-28 29c-1 0-1 0-1 1-1 0-2 1-2 1-1 0-1 1-1 1-2 0-3 0-4 0l-128 0c-1 0-3 0-4 0 0 0 0-1-1-1 0 0-1-1-2-1 0-1 0-1-1-1l-28-29-28 0c-3 0-6-1-8-3l-117-117c-4-4-4-11 0-15l64-64c4-4 11-4 15 0l35 35 0-241c0-6 5-11 11-11l256 0c6 0 11 5 11 11l0 241 35-35c4-4 11-4 15 0l64 64c4 4 4 11 0 15z m-189 127l17-17-49-49-17 17z m-26 4l-38-38-38 38z m-102-4l49-49-17-17-49 49z m245-184l-45 46c-4 3-8 4-12 3-4-2-7-6-7-10l0-256-234 0 0 256c0 4-3 8-7 10-4 1-9 0-12-3l-45-46-49 49 106 107 24 0 60-61c3-2 5-3 8-3 3 0 5 1 8 3l13 14 0-81c0-6 5-11 11-11 6 0 11 5 11 11l0 81 13-14c3-2 5-3 8-3 3 0 5 1 8 3l60 61 24 0 106-107z"/>
<glyph glyph-name="shirt-3" unicode="&#99;" d="M509 317l-117 117c-2 2-5 3-8 3l-28 0-28 29c-1 0-1 0-1 1-1 0-2 1-2 1-1 0-1 1-1 1-2 0-3 0-4 0l-128 0c-1 0-3 0-4 0 0 0 0-1-1-1 0 0-1-1-2-1 0-1 0-1-1-1l-28-29-28 0c-3 0-6-1-8-3l-117-117c-4-4-4-11 0-15l64-64c4-4 11-4 15 0l35 35 0-241c0-6 5-11 11-11l256 0c6 0 11 5 11 11l0 241 35-35c4-4 11-4 15 0l64 64c4 4 4 11 0 15z m-189 127l17-17-49-49-17 17z m-26 4l-38-38-38 38z m-102-4l49-49-17-17-49 49z m-60-135c-4 1-9 0-12-3l-45-46-49 49 106 107 24 0 60-61c3-2 5-3 8-3 3 0 5 1 8 3l13 14 0-326-106 0 0 256c0 4-3 8-7 10z m305-49l-45 46c-4 3-8 4-12 3-4-2-7-6-7-10l0-256-106 0 0 326 13-14c3-2 5-3 8-3 3 0 5 1 8 3l60 61 24 0 106-107z m-138 39c0-6-5-11-11-11-6 0-11 5-11 11 0 6 5 10 11 10 6 0 11-4 11-10z m0-43c0-6-5-11-11-11-6 0-11 5-11 11 0 6 5 11 11 11 6 0 11-5 11-11z m0-43c0-6-5-10-11-10-6 0-11 4-11 10 0 6 5 11 11 11 6 0 11-5 11-11z m0-42c0-6-5-11-11-11-6 0-11 5-11 11 0 6 5 10 11 10 6 0 11-4 11-10z m0-43c0-6-5-11-11-11-6 0-11 5-11 11 0 6 5 11 11 11 6 0 11-5 11-11z"/>
<glyph glyph-name="bag" unicode="&#100;" d="M470 375l-89 0 0 56c0 23-18 42-41 42l-159 0c-23 0-42-19-42-42l0-56-97 0c-23 0-42-19-42-42l0-252c0-23 19-42 42-42l428 0c23 0 42 19 42 42l0 252c0 23-19 42-42 42z m-314 56c0 14 11 25 25 25l159 0c13 0 25-11 25-25l0-56-23 0 0 37c0 13-12 25-25 25l-118 0c-14 0-25-12-25-25l0-37-18 0 0 56z m169-56l-135 0 0 37c0 4 4 8 9 8l118 0c4 0 8-4 8-8l0-37z m145-17c5 0 9-1 13-3-14-14-93-91-182-108-6 18-22 30-41 30-19 0-35-12-41-29-89 13-171 90-188 107 3 2 7 3 11 3z m-183-125c0-14-12-27-27-27-15 0-27 13-27 27 0 15 12 28 27 28 15 0 27-13 27-28z m208-152c0-14-11-25-25-25l-428 0c-14 0-25 11-25 25l0 252c0 4 1 7 2 10 19-19 103-98 197-111 1-24 20-42 44-42 23 0 42 18 43 41 93 17 173 93 191 111 1-3 1-6 1-9z"/>
<glyph glyph-name="coffee-streamline" unicode="&#101;" d="M373 0l-256 0c-5 0-10 4-10 10l-22 341c0 3 1 6 3 8 2 2 5 4 8 4l299 0c3 0 5-2 7-4 2-2 3-5 3-8l-21-341c0-6-5-10-11-10z m-246 21l236 0 20 320-276 0z m289 320l-341 0c-6 0-11 5-11 11l0 85c0 6 5 11 11 11l341 0c6 0 11-5 11-11l0-85c0-6-5-11-11-11z m-331 22l320 0 0 64-320 0z m310 64c0 0 0 0 0 0l-299 0c-3 0-7 1-9 4-2 3-2 6-1 10l21 64c2 4 6 7 10 7l256 0c5 0 9-3 10-7l21-62c1-2 2-4 2-6 0-6-5-10-11-10z m-284 21l269 0-14 43-241 0z m278-192l-288 0c-6 0-10 5-10 11 0 6 4 10 10 10l288 0c6 0 11-4 11-10 0-6-5-11-11-11z m-280-107l272 0 0-21-272 0z m168 43l-64 0c-6 0-10 5-10 11 0 6 4 10 10 10l64 0c6 0 11-4 11-10 0-6-5-11-11-11z"/>
<glyph glyph-name="coffee" unicode="&#102;" d="M454 363l-36 106-55 0 0 22-128 0 0-22-146 0-36-106 32 0 43-363 251 0 43 363z m-334 64l157 0 0 21 43 0 0-21 68 0 7-22-282 0z m16-128l235 0-12-107-211 0z m30-256l-15 128 205 0-15-128z m208 277l-241 0-5 43 251 0z"/>
<glyph glyph-name="paperclip" unicode="&#103;" d="M452 412l-61 60c-41 41-109 41-151 0l-211-211 30-30 212 211c25 25 65 25 90 0l60-61c25-25 25-65 0-90l-211-211c-27-27-57-33-65-25l-10 10-15 15-33 33c-4 3-1 24 10 35l211 211c3 2 23-8 38-23-7-6-5-5-8-7l-153-154 30-30 154 153c18 19 41 35 7 68-33 34-67 54-98 23l-211-211c-25-25-35-71-10-95l33-33 25-25c28-29 83-18 125 25l212 211c41 41 41 109 0 151z"/>
<glyph glyph-name="pen-1" unicode="&#104;" d="M450 509c-4 4-9 4-12 0l-12-11c-8 6-19 10-29 10-14 0-26-6-36-16l-120-119c-3-3-3-9 0-12 2-2 4-3 6-3 3 0 5 1 7 3l119 119c11 11 28 13 41 6l-104-105-214-213c-3-3-3-9 0-12l3-3c-3 1-6 1-9 1-16 0-32-7-45-20-24-24-43-114-45-124 0 0 0-1 0-1 0 0 0 0 0-1 0-1 0-2 1-2 0-1 0-1 0-1 0-1 1-2 2-3 0 0 1-1 2-1 1-1 2-1 4-1 0 0 1 0 1 0 10 2 100 21 124 45 16 16 22 36 19 54l3-3c2-1 4-2 6-2 2 0 5 1 6 2l342 342c3 3 3 8 0 12z m-328-452c-13-13-55-26-86-34l47 48c3 3 3 8 0 12-4 3-9 3-12 0l-47-47c7 31 20 73 33 86 10 10 21 15 33 15 11 0 22-5 32-15 20-20 20-45 0-65z m40 57l-48 48 202 201 47-47z m213 214l-47 47 116 116 47-47z"/>
<glyph glyph-name="mouse-2" unicode="&#105;" d="M501 480c-6 0-10-5-10-11l0-128c0-54-34-79-64-79-31 0-64 25-64 79l0 54c0 75-59 114-118 114-58 0-117-39-117-114l-53 0c-41 0-75-34-75-75l0-181c0-77 62-139 139-139 76 0 138 62 138 139l0 181c0 41-33 75-74 75l-54 0c0 64 50 93 96 93 26 0 49-8 67-23 19-17 29-41 29-70l0-54c0-66 43-101 86-101 42 0 85 35 85 101l0 128c0 6-5 11-11 11z m-426-107l53 0 0-85-107 0 0 32c0 29 24 53 54 53z m64-352c-65 0-118 53-118 118l0 128 235 0 0-128c0-65-53-118-117-118z m64 352c29 0 53-24 53-53l0-32-107 0 0 85z"/>
<glyph glyph-name="wallet-1" unicode="&#106;" d="M478 272l0 47c-3 40-31 74-69 86l-23 75-285-72-43 0-3 0c-26-6-48-28-55-55l0-282 0-2c7-27 30-49 56-53l2 0 334 0c46 4 83 41 86 88l0 48c0 0 0 0 0 0 21 0 34 17 34 43l0 26c0 24-12 48-34 51z m-104 187l16-51-218 0z m17-426l-333 0c-19 3-35 19-41 39l0 278c5 20 22 36 42 41l331 0c39-5 68-36 71-72l0-47-75 0c-27 2-45-26-45-51l0-26c0-12 4-22 11-30 8-10 20-15 34-13l75 0 0-48c-3-37-33-68-70-71z m104 162c0-8-2-26-17-26-1 0-3 0-4 0l-89 1-1-1c-8-1-15 1-19 7-4 5-7 11-7 19l0 26c0 16 11 34 25 34 1 0 1 0 2 0l88 0c14 1 22-17 22-34z m-77 17c0-9-8-17-17-17-9 0-17 8-17 17 0 10 8 17 17 17 9 0 17-7 17-17z m-339 145l-21 0c-5 0-9-4-9-8 0-5 4-9 9-9l21 0c5 0 9 4 9 9 0 4-4 8-9 8z m65 0l-22 0c-5 0-8-4-8-8 0-5 3-9 8-9l22 0c4 0 8 4 8 9 0 4-4 8-8 8z m64 0l-21 0c-5 0-9-4-9-8 0-5 4-9 9-9l21 0c5 0 9 4 9 9 0 4-4 8-9 8z m65 0l-22 0c-5 0-8-4-8-8 0-5 3-9 8-9l22 0c4 0 8 4 8 9 0 4-4 8-8 8z m43-17l21 0c5 0 9 4 9 9 0 4-4 8-9 8l-21 0c-5 0-9-4-9-8 0-5 4-9 9-9z m64 0l22 0c5 0 8 4 8 9 0 4-3 8-8 8l-22 0c-4 0-8-4-8-8 0-5 4-9 8-9z m-301-256l-21 0c-5 0-9-4-9-8 0-5 4-9 9-9l21 0c5 0 9 4 9 9 0 4-4 8-9 8z m65 0l-22 0c-5 0-8-4-8-8 0-5 3-9 8-9l22 0c4 0 8 4 8 9 0 4-4 8-8 8z m64 0l-21 0c-5 0-9-4-9-8 0-5 4-9 9-9l21 0c5 0 9 4 9 9 0 4-4 8-9 8z m65 0l-22 0c-5 0-8-4-8-8 0-5 3-9 8-9l22 0c4 0 8 4 8 9 0 4-4 8-8 8z m64 0l-21 0c-5 0-9-4-9-8 0-5 4-9 9-9l21 0c5 0 9 4 9 9 0 4-4 8-9 8z m65 0l-22 0c-4 0-8-4-8-8 0-5 4-9 8-9l22 0c5 0 8 4 8 9 0 4-3 8-8 8z"/>
<glyph glyph-name="drug" unicode="&#107;" d="M149 9c44 0 87 19 119 51l184 184c30 30 48 70 50 111 3 41-12 80-39 108-26 25-62 40-100 40-44 0-87-19-119-51l-184-184c-30-30-48-70-50-111-3-41 12-80 39-108 26-25 62-40 100-40z m107 431c29 29 68 46 107 46 34 0 65-13 88-36 24-24 36-58 34-94-1-37-18-73-45-100l-82-82-184 184z m-229-284c1 37 18 73 45 100l90 90 184-184-90-90c-29-29-68-46-107-46-34 0-65 13-87 35-25 25-37 59-35 95z m206 205c2-2 4-3 6-3 2 0 4 1 6 3l51 51c30 30 77 30 108 0 3-3 8-3 12 0 3 3 3 9 0 12-37 37-95 37-132 0l-51-51c-3-3-3-9 0-12z"/>
<glyph glyph-name="heart-pulse" unicode="&#108;" d="M503 205l-162 0c-3 0-6-2-7-5l-24-48-37 140c-1 4-4 6-8 7-3 0-7-2-8-6l-45-104-34 54c-2 3-4 4-7 4-3 1-5-1-7-3l-32-39-123 0c-5 0-9-4-9-9 0-5 4-8 9-8l128 0c2 0 5 1 6 3l27 33 36-58c2-3 5-4 8-4 3 0 6 2 7 5l42 97 36-138c1-4 4-6 7-7 1 0 1 0 1 0 3 0 6 2 8 5l32 64 156 0c5 0 9 3 9 8 0 5-4 9-9 9z m-461 35c1-4 4-6 8-6 1 0 2 1 3 1 4 2 6 7 5 11l-2 3c-11 28-22 54-22 84 0 101 51 141 95 145 49 3 106-37 119-121 0-4 4-7 8-7 4 0 8 3 8 7 13 84 70 124 119 121 44-4 95-44 95-145 0-26-9-43-20-66-4-6-7-13-11-20-2-5 0-10 4-12 5-2 10 0 12 4 3 7 7 14 10 20 12 24 22 44 22 74 0 113-59 158-110 162-50 3-106-30-129-100-23 70-79 103-129 100-51-4-110-49-110-162 0-33 11-61 23-90z m209-239c2-1 3-1 5-1 2 0 4 1 5 2 1 0 83 64 148 150 2 3 2 9-2 12-4 2-9 2-12-2-54-72-121-128-139-143-20 14-94 68-150 143-2 4-8 4-12 2-3-3-4-9-1-12 66-89 155-148 158-151z"/>
<glyph glyph-name="ice-drinks-glass" unicode="&#109;" d="M102 401l0-68c0-5 4-9 9-9l18 0 25-316c0-5 4-8 8-8l205 0c4 0 8 3 8 8l25 316 18 0c5 0 9 4 9 9l0 68c0 5-4 9-9 9l-268 0-48 97-16-7 45-90-20 0c-5 0-9-4-9-9z m51-163c10-1 20-6 28-14 10-9 15-23 15-36 0-23-15-42-36-49z m206-221l-189 0-8 105c30 7 51 34 51 66 0 18-7 36-20 49-12 11-26 17-42 19l-5 68 237 0z m-240 376l291 0 0-52-291 0z"/>
<glyph glyph-name="wine" unicode="&#110;" d="M239 197l0-180-51 0c-5 0-9-4-9-8 0-5 4-9 9-9l119 0c5 0 9 4 9 9 0 4-4 8-9 8l-51 0 0 180c77 4 137 66 137 144 0 1 0 1-1 2l-25 162c-1 4-4 7-9 7l-221 0c-5 0-8-3-9-7l-25-162c-1-1-1-1-1-2 0-78 60-140 137-144z m-95 298l207 0 16-103-240 0z m-19-121l245 1 5-34c0-73-55-128-128-128-72 0-127 55-128 128z"/>
<glyph glyph-name="bottle-1" unicode="&#111;" d="M119 205l0-162c0-22 21-43 43-43l171 0c22 0 42 21 42 43l0 162c0 69-14 119-85 143l0 79 9 0c4 0 8 3 8 8l0 68c0 5-4 9-8 9l-103 0c-4 0-8-4-8-9l0-68c0-5 4-8 8-8l9 0 0-79c-71-24-86-74-86-143z m86 290l85 0 0-51-85 0z m68-68l0-86c0-3 3-7 6-8 66-19 79-63 79-128l0-162c0-13-13-26-25-26l-171 0c-12 0-25 13-25 26l0 162c0 65 13 109 79 128 3 1 6 5 6 8l0 86z m-102-180l0-68c0-5 3-8 8-8l137 0c4 0 8 3 8 8l0 68c0 5-4 9-8 9l-137 0c-5 0-8-4-8-9z m17-8l119 0 0-51-119 0z"/>
<glyph glyph-name="bottle-4" unicode="&#112;" d="M290 503c0 5-4 9-8 9l-69 0c-4 0-8-4-8-9l0-179c0-16-20-37-41-59-29-30-62-64-62-103 0-65 21-136 22-139 3-13 16-23 30-23l187 0c14 0 27 10 30 23 1 3 22 74 22 139 0 39-33 73-62 103-21 22-41 43-41 59z m-68-8l51 0 0-51-51 0z m-102-341l255 0c0-24-3-48-7-69l-241 0c-4 21-7 45-7 69z m235-127c-2-5-8-10-14-10l-187 0c-6 0-12 5-14 10 0 1-5 17-10 41l235 0c-5-24-10-40-10-41z m-36 226c24-25 51-53 56-82l-255 0c5 29 32 57 56 82 25 26 46 48 46 71l0 103 51 0 0-103c0-23 21-45 46-71z"/>
<glyph glyph-name="award-1" unicode="&#113;" d="M96 199c-1-3 0-7 3-9l80-65-40-96c-1-4 0-8 3-10 1-1 3-2 5-2 2 0 4 1 5 2l89 73 97-73c3-3 7-3 10 0 3 2 5 6 3 10l-40 96 78 65c3 2 4 6 3 9-1 4-4 6-8 6l-103 0-32 121c-1 4-4 7-8 7-4 0-8-3-9-7l-24-121-104 0c-3 0-7-2-8-6z m119-11c4 0 8 3 9 7l18 92 25-93c1-4 4-6 8-6l85 0-65-53c-3-3-4-7-2-10l30-74-77 58c-2 1-3 2-5 2-2 0-4-1-6-2l-67-55 29 71c2 3 1 7-2 10l-66 53z m103 81c0 0 1 0 1 0 4 0 8 3 9 7l43 226c0 2 0 5-2 7-2 2-4 3-7 3l-236 0c-3 0-5-1-7-3-1-2-2-5-2-7l43-226c1-5 6-8 10-7 5 1 8 5 7 10l-41 216 69 0 0-131c0-5 4-9 8-9 5 0 9 4 9 9l0 131 51 0 0-131c0-5 4-9 9-9 4 0 8 4 8 9l0 131 62 0-41-216c-1-5 2-9 7-10z"/>
<glyph glyph-name="award-5" unicode="&#114;" d="M94 171c0-94 76-171 171-171 94 0 170 77 170 171 0 94-76 170-170 170-95 0-171-76-171-170z m324 0c0-85-69-154-153-154-85 0-154 69-154 154 0 84 69 153 154 153 84 0 153-69 153-153z m-161 97l-32-63-54 0c-4 0-7-2-8-6-2-3-1-7 2-9l47-39-24-71c-1-4 0-8 3-10 3-2 7-2 10 0l64 39 63-39c2-1 3-2 5-2 2 0 4 1 5 2 3 2 4 6 3 9l-24 72 47 39c3 2 4 6 2 9-1 4-4 6-8 6l-54 0-32 63c-3 6-12 6-15 0z m34-76c1-2 4-4 8-4l36 0-33-28c-3-2-4-6-3-9l18-54-48 30c-1 1-3 1-4 1-2 0-4 0-5-1l-48-30 18 54c1 3 0 7-3 9l-33 28 36 0c4 0 7 2 8 4l27 53z m76 320l-205 0c-5 0-8-4-8-9l0-51c0 0 0-1 0-1l17-103c0-4 4-7 8-7 1 0 1 0 2 0 4 1 7 6 7 10l-17 102 0 42 34 0 0-120c0-4 4-8 8-8 5 0 9 4 9 8l0 120 34 0 0-121c0-4 4-8 9-8 4 0 8 4 8 8l0 121 34 0 0-120c0-4 4-8 9-8 4 0 8 4 8 8l0 120 34 0 0-42-17-102c0-4 3-9 7-10 1 0 1 0 2 0 4 0 8 3 8 7l17 103c0 0 0 1 0 1l0 51c0 5-3 9-8 9z"/>
<glyph glyph-name="box-1" unicode="&#115;" d="M512 401c0 1 0 2-1 3 0 0 0 0 0 1 0 0-1 1-1 2 0 0 0 0-1 0 0 1 0 1-1 1 0 0-1 1-1 1 0 0 0 0 0 0l-239 102c-2 1-5 1-7 0l-256-102c0 0 0 0 0 0 0 0-1-1-1-1-1 0-1 0-1-1 0 0 0 0-1 0 0-1-1-1-1-2 0-1 0-1 0-1-1-1-1-2-1-3 0 0 0 0 0 0 0 0 0 0 0 0l0-273c0-3 2-6 5-8l256-119c0 0 0 0 0 0 1-1 2-1 4-1 1 0 2 0 3 1 0 0 0 0 0 0l239 119c3 2 5 5 5 8l0 273c0 0 0 0 0 0z m-248 93l219-93-95-44-216 100z m0-195l-233 102 120 48 217-101z m-247 89l239-103 0-263-239 111z m478-255l-222-111 0 263 222 103z m-295 122l-120 52c-2 1-6 0-8-1-2-2-4-4-4-7l0-111c0-4 2-7 5-8l120-51c1-1 2-1 3-1 2 0 4 0 5 1 2 2 4 5 4 8l0 110c0 4-2 7-5 8z m-12-106l-103 44 0 93 103-44z"/>
<glyph glyph-name="cube" unicode="&#116;" d="M258 501l-237-116 0-235 235-139 235 139 0 235z m-23-428l-171 101 0 142 171-84z m-161 287l185 94 185-94-185-91z m374-186l-192-114 0 165 192 91z"/>
<glyph glyph-name="shield-3" unicode="&#117;" d="M456 494c-4 2-7 1-10-2-23-23-44-31-79-31-43 0-90 20-113 48 0 0 0 0 0 0-2 2-4 3-7 3-1 0-2 0-3-1-1 0-3-1-4-2-22-28-69-48-112-48-35 0-56 8-79 31-3 3-6 4-10 2-3-1-5-4-5-8l0-307c0 0 0-1 0-1 1-5 24-125 211-178 1 0 2 0 2 0 1 0 2 0 3 0 19 6 36 12 52 18 0 0 0 0 0 0 139 58 158 155 159 160 0 0 0 1 0 1l0 307c0 4-2 7-5 8z m-89-50c33 0 55 6 77 23l0-194-188 0 0 210c28-24 71-39 111-39z m26-347c-10-10-21-19-35-29l0 188 35 0z m-137 159l34 0 0-224c-10-4-22-8-34-12z m51 0l34 0 0-199c-10-6-21-12-34-18z m-68 227l0-210-34 0 0 189c13 6 24 13 34 21z m-85-210l0 173c11 2 23 5 34 9l0-182z m-17 171l0-171-35 0 0 173c8-2 17-2 26-2 3 0 6 0 9 0z m-52 5l0-176-34 0 0 194c11-8 22-14 34-18z m-1-331c-25 31-32 58-33 62l0 76 188 0 0-236c-85 26-132 67-155 98z m326-3l0 141 34 0 0-76c-1-4-8-32-34-65z"/>
<glyph glyph-name="shield-2" unicode="&#118;" d="M456 494c-4 2-7 1-10-2-23-23-44-31-79-31-43 0-90 20-113 48 0 0 0 0 0 0-2 2-4 3-7 3-1 0-2 0-3-1-1 0-3-1-4-2-22-28-69-48-112-48-35 0-56 8-79 31-3 3-6 4-10 2-3-1-5-4-5-8l0-307c0 0 0-1 0-1 1-5 24-125 211-178 1 0 2 0 2 0 1 0 2 0 3 0 187 53 210 173 211 178 0 0 0 1 0 1l0 307c0 4-2 7-5 8z m-89-50c33 0 55 6 77 23l0-194-188 0 0 210c28-24 71-39 111-39z m-239 0c40 0 83 15 111 39l0-210-188 0 0 194c22-17 44-23 77-23z m-44-326c-25 31-32 58-33 62l0 76 188 0 0-236c-85 26-132 67-155 98z m172-98l0 236 188 0 0-76c-2-9-28-111-188-160z"/>
<glyph glyph-name="book-6" unicode="&#119;" d="M9 85l128 0c34 0 68-18 68-59 0-5 4-9 8-9l69 0c4 0 8 4 8 9 0 41 34 59 68 59l128 0c5 0 9 4 9 9l0 341c0 5-4 9-9 9l-42 0 0 42c0 5-4 9-9 9l-119 0c-27 0-55-15-69-41-13 26-41 41-68 41l-119 0c-5 0-9-4-9-9l0-43-42 0c-5 0-9-4-9-9l0-340c0-5 4-9 9-9z m307 393l111 0 0-324-111 0c-24 0-46-14-60-34l0 298c0 39 31 60 60 60z m-248 0l111 0c29 0 60-21 60-60l0-298c-16 20-40 34-68 34l-103 0z m-51-52l34 0 0-281c0-5 4-8 9-8l111 0c38 0 68-30 68-69 0-4 4-8 8-8 5 0 9 4 9 8 0 39 32 69 60 69l119 0c5 0 9 3 9 8l0 282 34 0 0-325-120 0c-47 0-80-27-85-68l-52 0c-4 41-37 68-84 68l-120 0z"/>
<glyph glyph-name="books-1" unicode="&#120;" d="M111 512c-5 0-9-4-9-9l0-110c0-19-15-35-34-35-19 0-34 16-34 35l0 110c0 5-4 9-8 9-5 0-9-4-9-9l0-452c0-28 23-51 51-51 29 0 51 23 51 51l0 452c0 5-3 9-8 9z m-43-171c13 0 25 5 34 13l0-183-68 0 0 183c9-8 21-13 34-13z m-34-187l68 0 0-35-68 0z m34-137c-19 0-34 15-34 34l0 51 68 0 0-51c0-19-15-34-34-34z m-8 469l0-85c0-5 4-8 8-8 5 0 9 3 9 8l0 85c0 5-4 9-9 9-4 0-8-4-8-9z m170 26c-4 0-8-4-8-9l0-110c0-19-15-35-34-35-19 0-34 16-34 35l0 110c0 5-4 9-9 9-5 0-8-4-8-9l0-452c0-28 22-51 51-51 28 0 51 23 51 51l0 452c0 5-4 9-9 9z m-42-171c13 0 25 5 34 13l0-183-68 0 0 183c9-8 21-13 34-13z m-34-187l68 0 0-35-68 0z m34-137c-19 0-34 15-34 34l0 51 68 0 0-51c0-19-15-34-34-34z m-9 469l0-85c0-5 4-8 9-8 4 0 8 3 8 8l0 85c0 5-4 9-8 9-5 0-9-4-9-9z m171 26c-5 0-9-4-9-9l0-110c0-19-15-35-34-35-19 0-34 16-34 35l0 110c0 5-4 9-8 9-5 0-9-4-9-9l0-452c0-28 23-51 51-51 28 0 51 23 51 51l0 452c0 5-3 9-8 9z m-43-171c13 0 25 5 34 13l0-183-68 0 0 183c9-8 21-13 34-13z m-34-187l68 0 0-35-68 0z m34-137c-19 0-34 15-34 34l0 51 68 0 0-51c0-19-15-34-34-34z m-8 469l0-85c0-5 3-8 8-8 5 0 9 3 9 8l0 85c0 5-4 9-9 9-5 0-8-4-8-9z m170 26c-4 0-8-4-8-9l0-110c0-19-16-35-34-35-19 0-34 16-34 35l0 110c0 5-4 9-9 9-5 0-9-4-9-9l0-452c0-28 23-51 52-51 28 0 51 23 51 51l0 452c0 5-4 9-9 9z m-42-171c13 0 25 5 34 13l0-183-68 0 0 183c9-8 21-13 34-13z m-34-187l68 0 0-35-68 0z m34-137c-19 0-34 15-34 34l0 51 68 0 0-51c0-19-16-34-34-34z m-9 469l0-85c0-5 4-8 9-8 4 0 8 3 8 8l0 85c0 5-4 9-8 9-5 0-9-4-9-9z"/>
<glyph glyph-name="academic-cap" unicode="&#121;" d="M507 306l-247 128c-3 2-5 2-8 0l-247-128c-3-1-5-4-5-7 0-4 2-6 5-8l80-42 0-88c-19-4-34-21-34-42 0-23 19-42 43-42 23 0 43 19 43 42 0 21-15 38-35 42l0 80 150-78c1-1 3-1 4-1 1 0 3 0 4 1l150 78 0-36c0-40-60-99-154-99-23 0-47 4-73 11-5 1-9-1-11-6-1-5 2-9 6-11 28-7 53-11 78-11 106 0 171 68 171 116l0 44 80 42c3 2 5 4 5 8 0 3-2 6-5 7z m-388-187c0-14-11-25-25-25-14 0-26 11-26 25 0 15 12 26 26 26 14 0 25-11 25-26z m137 61l-140 73 142 37c5 2 7 6 6 11-1 4-6 7-10 6l-161-42-66 34 229 118 229-118z"/>
<glyph glyph-name="glasses" unicode="&#122;" d="M486 206l-26 0c-4 48-44 86-93 86-7 0-13-1-19-2l-75 42 98 55c6 3 13 5 18 4 6-1 10-5 13-10 3-4 8-5 12-3 4 3 5 8 3 12-5 9-14 16-25 17-9 2-20 0-29-5l-107-60-107 60c-9 5-20 7-29 5-11-1-20-8-25-17-2-4-1-9 3-12 4-2 9-1 12 3 3 5 7 9 13 10 5 1 12-1 18-4l98-55-75-42c-6 1-12 2-19 2-49 0-89-38-93-86l-26 0c-5 0-9-3-9-8 0-5 4-9 9-9l26 0c4-47 44-85 93-85 52 0 94 42 94 94 0 9 8 17 17 17 9 0 17-8 17-17 0-52 42-94 94-94 49 0 89 38 93 85l26 0c5 0 9 4 9 9 0 5-4 8-9 8z m-341-85c-42 0-77 35-77 77 0 42 35 77 77 77 42 0 77-35 77-77 0-42-35-77-77-77z m111 111c-8 0-15-3-21-7-8 25-26 46-49 57l70 40 70-40c-23-11-41-32-49-57-6 4-13 7-21 7z m111-111c-42 0-77 35-77 77 0 42 35 77 77 77 42 0 77-35 77-77 0-42-35-77-77-77z"/>
<glyph glyph-name="food-dome" unicode="&#65;" d="M503 154l-34 0c-4 103-81 187-181 202 7 8 11 17 11 28 0 24-19 43-43 43-24 0-43-19-43-43 0-11 4-20 11-28-100-15-177-99-181-202l-34 0c-5 0-9-4-9-9 0-5 4-8 9-8l13 0 45-49c1-2 4-3 6-3l362 0c2 0 5 1 6 3l49 49 13 0c5 0 9 3 9 8 0 5-4 9-9 9z m-273 230c0 14 12 26 26 26 14 0 26-12 26-26 0-14-12-26-26-26-14 0-26 12-26 26z m26-43c105 0 192-83 196-187l-392 0c4 104 91 187 196 187z m176-239l-355 0-32 35 421 0z m-176 188c5 0 9 4 9 9 0 4-4 8-9 8-54 0-105-27-135-72-2-4-1-9 3-12 1-1 3-1 4-1 3 0 6 1 7 4 27 40 72 64 121 64z"/>
</font>
</defs>
</svg>
